<?xml version="1.0" standalone="no"?>
<!DOCTYPE svg PUBLIC "-//W3C//DTD SVG 1.1//EN" "http://www.w3.org/Graphics/SVG/1.1/DTD/svg11.dtd">
<svg xmlns="http://www.w3.org/2000/svg">
<metadata>Copyright (C) 2016 by original authors @ fontello.com</metadata>
<defs>
<font id="fontello-custom" horiz-adv-x="1000" >
<font-face font-family="fontello-custom" font-weight="400" font-stretch="normal" units-per-em="1000" ascent="850" descent="-150" />
<missing-glyph horiz-adv-x="1000" />
<glyph glyph-name="cloud" unicode="&#xe800;" d="M906 205v0c52 2 94 45 94 97 0 48-33 87-78 95 0 3 0 6 0 8 0 107-87 194-194 194-12 0-24-1-36-3-26 128-140 223-272 223-150 0-272-119-278-266-82-16-142-88-142-172 0-97 78-175 174-176v-249h-95v-46l6-5c3-2 33-24 58-24h734c25 0 55 22 58 24l6 5v46h-95v249h60z m-876 176c0 73 55 136 129 144l13 1 0 15c0 137 111 248 248 248 123 0 228-92 245-214l2-17 17 5c14 4 29 6 44 6 91 0 164-73 164-164 0-6 0-12-1-19l-2-16 16-1c37-1 65-30 65-67 0-37-30-67-67-67-1 0-34 0-57 0v111c0 21-17 37-37 37h-598c-20 0-37-16-37-37v-111c-79 1-144 66-144 146z m882-456c-10-6-26-14-35-14h-734c-9 0-24 8-35 14v1h327c9-11 25-11 34-11h82c9 0 25 0 34 11h327v-1z m-332 31l-16 0-3-10c-2-1-7-1-10-1h-1-81c-3 0-8 0-10 1l-4 10h-251v390c0 4 3 7 7 7h598c4 0 7-3 7-7v-390h-236l0 0z m-353 26h566v348h-566v-348z m30 318h274l-109-109 21-21 130 130h42l-218-219 21-21 239 240h106v-288h-506v288z" horiz-adv-x="1000" />

<glyph glyph-name="content" unicode="&#xe801;" d="M945 633v162c0 25-21 45-45 45h-423c-25 0-45-20-45-45v-162h-432v-123-650h477 423 100v650 123h-55z m25-29v-64h-25v64h25z m-538-416h-340v242h340v-242z m-402 416h402v-64h-402v64z m0-94h402v-51h-370v-300h370v-42h-131v-30h131v-24h-131v-30h131v-24h-131v-30h131v-25h-131v-29h131v-20c0-6 1-11 3-16h-405v621z m447-621c-8 0-15 7-15 16v890c0 9 7 16 15 16h423c8 0 15-7 15-16v-890c0-9-7-16-15-16h-423l0 0z m493 0h-28c2 5 3 10 3 16v605h25v-621z m-921 698h31v-29h-31v29z m53 0h30v-29h-30v29z m53 0h30v-29h-30v29z m-90-662h192v192h-192v-192z m30 162h133v-133h-133v133z m391-76h405v686h-405v-686z m30 657h345v-628h-345v628z m23-267h298v231h-298v-231z m30 201h239v-171h-239v171z m39 171h161v-30h-161v30z m66-805h29v-29h-29v29z m-135 382h298v-29h-298v29z m0-54h298v-30h-298v30z m0-54h298v-30h-298v30z m0-54h298v-30h-298v30z" horiz-adv-x="1000" />

<glyph glyph-name="data-management" unicode="&#xe802;" d="M493 443c-26-1-50-12-68-32-17-19-26-44-25-70 2-53 45-94 98-94 1 0 3 0 5 0 26 1 50 13 68 32 17 19 26 44 25 71-2 54-48 96-103 93z m55-143c-13-13-29-21-47-22-37-2-68 27-70 64-1 18 5 35 17 48 12 14 29 21 47 22 1 0 2 0 3 0 36 0 65-28 67-64 1-18-5-35-17-48z m145 118l28 27-46 72-40-15c0 0-1 1-1 1l10 40-76 39-27-33c0 0-1 0-1 0l-11 40-85-4-7-40c-1-1-2-1-3-1l-28 28-71-46 13-36c-1-2-2-3-4-4l-35 9-40-75 27-22c0-3-1-6-2-9l-32-9 4-85 31-5c1-4 2-8 4-11l-22-21 47-72 27 10c3-3 6-7 10-10l-7-26 76-39 18 21c4-1 9-2 14-2l7-27 85 4 5 29c4 2 8 3 13 5l20-20 72 46-12 30c2 3 5 6 7 8l30-8 40 76-28 23c0 2 0 5 1 7l34 9-4 85-39 7c-1 1-1 2-2 4z m13-72l-31-8-1-11c-1-8-2-16-4-23l-2-10 23-19-16-31-27 7-6-9c-5-7-11-14-17-20l-7-7 10-26-30-19-17 18-10-5c-9-4-19-7-28-9l-9-3-4-24-36-1-5 22-11 1c-10 1-20 3-30 6l-10 3-14-18-32 16 6 22-8 6c-8 6-15 13-22 21l-7 7-23-8-19 29 18 18-4 9c-3 9-6 18-8 27l-2 10-27 5-2 35 27 7 2 10c1 7 3 15 6 24l3 10-23 20 16 31 30-8 7 7c5 6 10 12 15 16l7 8-12 31 30 19 24-24 10 3c6 3 13 5 19 6l10 3 6 35 35 2 9-35 10-2c6-1 13-2 18-3l10-3 23 29 32-17-10-34 8-7c5-3 10-7 15-12l7-7 34 13 19-30-25-24 5-10c2-6 5-13 7-19l3-10 33-5 2-35z m-206 504c-276 0-500-224-500-500 0-276 224-500 500-500 276 0 500 224 500 500 0 276-224 500-500 500z m469-478h-119c-3 60-24 123-58 174l96 71c48-71 77-154 81-245z m-150-22c0-176-143-319-319-319-176 0-319 143-319 319 0 176 143 319 319 319 176 0 319-143 319-319z m-319 469c150 0 283-71 369-180l-96-70c-64 80-163 131-273 131-32 0-63-4-93-12l-37 113c42 11 85 18 130 18z m0-938c-259 0-469 210-469 469 0 203 129 376 310 441l36-113c-132-50-227-178-227-328 0-193 157-350 350-350 72 0 138 21 194 58l69-96c-75-51-165-81-263-81z m288 102l-69 97c76 62 127 157 131 260h119c-5-144-74-274-181-357z" horiz-adv-x="1000" />

<glyph glyph-name="e-commerce" unicode="&#xe803;" d="M610 850c-202 0-367-165-367-367 0-42 7-82 20-121h-32l-9-43c-2-1-4-1-6-2l-29 32-78-45 13-39c-2-2-4-4-6-6l-38 12-45-78 28-25c-2-4-3-8-4-12l-35-8 0-89 33-7c1-6 3-11 4-16l-23-21 44-78 30 10c4-5 8-9 13-14l-9-28 78-44 20 22c6-2 12-3 18-5l6-28h90l7 31c5 1 11 3 16 5l21-23 78 45-11 33c3 4 7 7 10 11l32-10 45 77-29 26c1 4 2 8 3 11l37 8 0 59c24-5 50-8 75-8 203 0 368 165 368 368s-165 367-368 367z m-104-762l-34-8-2-10c-1-8-3-17-5-25l-3-9 25-23-21-36-29 9-7-8c-6-8-12-15-20-22l-6-6 9-29-37-21-18 20-10-3c-10-4-20-7-31-10l-9-2-6-26h-42l-5 25-10 1c-11 2-22 5-33 9l-9 3-17-19-37 21 8 24-8 6c-8 7-16 15-23 24l-7 7-25-8-21 37 20 18-3 9c-4 10-6 20-8 30l-2 10-28 6 0 43 30 6 2 10c2 9 4 18 7 27l4 9-25 22 21 37 33-11 7 7c5 6 11 12 17 17l8 7-12 35 37 21 26-28 9 3c7 2 14 4 21 5l9 2 9 39h20c12-29 29-56 49-81l-17-31c-10 3-20 4-31 4-69 0-126-56-126-125 0-70 57-126 126-126s125 56 125 126c0 21-5 42-16 61l23 15c31-20 63-36 98-46l0-42z m-257 0c3-3 6-4 10-4 3 0 5 0 8 2l94 59c7-14 11-29 11-45 0-53-43-97-96-97s-96 44-96 97c0 53 43 96 96 96 6 0 12-1 17-2l-47-89c-3-6-2-13 3-17z m361 56c-69 0-136 21-193 61-5 3-11 4-16 0l-103-65 56 107c3 6 2 12-2 17-51 61-80 138-80 219 0 186 152 338 338 338 187 0 339-152 339-338s-152-339-339-339z m192 453h-320l-14 40c-1 5-5 8-9 10l-56 15c-8 3-16-2-18-10-2-7 2-15 10-18l48-13 61-183-8-25c-28-2-51-26-51-55 0-31 25-56 56-56 26 0 47 17 54 41h96c7-24 29-41 54-41 31 0 56 25 56 56 0 30-25 55-56 55-25 0-47-17-54-41h-96c-5 16-16 29-30 36l5 16h222c14 0 26 11 27 25l37 129c2 4 1 9-2 13-3 3-7 6-12 6z m-97-213c15 0 27-12 27-26 0-15-12-27-27-27-14 0-26 12-26 27 0 14 12 26 26 26z m-204-53c-15 0-27 12-27 27 0 14 12 26 27 26s26-12 26-26c0-15-12-27-26-27z m250 124c0-1-1-1-1-2h-220l-36 114h289l-32-112z m-218 94h213v-29h-213v29z m15-46h184v-29h-184v29z" horiz-adv-x="1000" />

<glyph glyph-name="keyword" unicode="&#xe804;" d="M0 737v-123-651h1000v651 123h-1000z m30-30h940v-64h-940v64z m940-714h-940v621h940v-621z m-921 698h31v-30h-31v30z m53 0h30v-30h-30v30z m53 0h30v-30h-30v30z m-36-406v-112h91v42h13v-27-15h92v112h322v-80c0-38 31-69 69-69h135c38 0 69 31 69 69v251c0 38-31 69-69 69h-135c-38 0-69-31-69-69v-80h-547v-91h29v0z m0 62h548v109c0 22 17 40 39 40h135c22 0 40-18 40-40v-251c0-22-18-39-40-39h-135c-22 0-39 17-39 39v110h-382v-112h-32v42 67h-30v-67h-42v-42h-33v112h-29v32z m729 116h-149v-265h149v265l0 0z m-29-235h-90v206h90v-206z" horiz-adv-x="1000" />

<glyph glyph-name="link-building" unicode="&#xe805;" d="M703 597c-33 0-64-13-88-37l-111-112c-31-30-44-76-33-118l-32-32c-42 11-87-1-118-33l-112-111c-48-49-48-128 0-176 23-24 55-37 88-37 33 0 64 13 88 37l111 112c32 31 44 76 33 118l32 32c10-3 20-4 30-4 33 0 65 13 89 37l111 111c49 49 49 128 0 176-23 24-55 37-88 37z m-48-221c-3 11-9 22-17 31-9 8-19 14-31 17l73 72c12 12 34 12 47 0 13-13 13-34 0-48l-72-72z m-86 9c6 7 15 10 24 10 9 0 17-3 23-10 13-13 13-34 0-47l-1-1c0 0 0 0 0 0l-183-183 0 0-1-1c-13-13-35-13-47 0-7 6-10 14-10 23 0 9 3 18 10 24l1 1 0 0 184 184z m-224-223c3-12 9-22 17-31 9-8 19-14 31-17l-72-72c-13-13-35-13-48 0-13 13-13 35 0 48l72 72z m130-51l-112-112c-17-17-41-27-66-27-25 0-49 10-67 27-36 37-36 97 0 133l112 112c19 19 45 29 70 28l-50-51c0 0 0 0 0 0l-110-110c-25-25-25-65 0-90 12-13 29-19 45-19 16 0 33 6 45 19l110 110c0 0 0 0 1 0l50 50c1-26-9-51-28-70z m295 295l-112-112c-19-19-44-28-70-27l49 48c0 0 0 0 0 0l111 112c25 25 25 65 0 90-25 25-65 25-90 0l-112-111c0 0 0 0 0 0l-48-49c-1 26 8 51 27 70l112 112c17 17 41 27 66 27s49-10 67-27c36-37 36-97 0-133z m230-132h-45v45h-31v-45h-45v-31h45v-45h31v45h45v31z m-924 45h-30v-45h-46v-31h46v-45h30v45h45v31h-45v45z m409 318h30v46h46v30h-46v46h-30v-46h-46v-30h46v-46z" horiz-adv-x="1000" />

<glyph glyph-name="market-research" unicode="&#xe806;" d="M581 463v124h20v107h-202v-107h16v0h4v-124c-137-37-231-159-231-301 0-172 140-312 312-312 172 0 312 140 312 312 0 142-94 264-231 301z m-81-583c-155 0-281 127-281 282 0 132 89 245 218 274l12 3v148h49v31h-49-19 0v46h140v-46h-19v-179l12-3c129-29 218-142 218-274 0-155-126-282-281-282z m-3 596c23 0 41 18 41 41 0 23-18 41-41 41-23 0-41-18-41-41 0-23 18-41 41-41z m0 52c6 0 11-5 11-11 0-6-5-11-11-11-6 0-11 5-11 11 0 6 5 11 11 11z m-22 211c30 0 55 25 55 56 0 30-25 55-55 55-31 0-55-25-55-55 0-31 24-56 55-56z m0 81c14 0 25-11 25-25 0-14-11-25-25-25-14 0-25 11-25 25 0 14 11 25 25 25z m79-113c16 0 28 12 28 28s-12 28-28 28c-16 0-28-12-28-28s12-28 28-28z m0 30c1 0 2-1 2-2 0-2-4-2-4 0 0 1 1 2 2 2z m122-409c-28 28-62 50-100 63-17 5-33 8-50 10-9 1-17 2-27 2-135 0-245-111-245-246 0-135 110-245 245-245 136 0 246 110 246 245 0 66-27 127-69 171z m-201-159l-188-43c-2 10-3 21-3 31 0 68 32 128 81 168l3-5 107-151z m-83 175c28 16 60 26 94 28l0-9v-154l-37 52-57 83z m125 28c110-9 198-102 198-215 0-16-2-31-5-46l-193 62v199l0 0z m-18-430c-97 0-180 65-206 155l211 48c0 0 0 0 1 0l196-64c-31-81-110-139-202-139z" horiz-adv-x="1000" />

<glyph glyph-name="mobile-commerce" unicode="&#xe807;" d="M282 780h165v-30h-165v30z m68-821h30v-30h-30v30z m547 460c0 153-120 278-271 286v98c0 25-21 46-46 46h-431c-25 0-46-21-46-46v-909c0-25 21-46 46-46h431c25 0 46 21 46 46v238c151 9 271 134 271 287z m-317-540h-431c-9 0-16 7-16 15v909c0 8 7 15 16 15h431c9 0 16-7 16-15v-98c-14 0-27-2-40-4v17h-398v-731h413v148c8-1 17-2 25-3v-238c0-8-7-15-16-15z m-71 809c-108-41-186-146-186-269 0-65 22-127 62-178l-85-161 154 98c27-17 56-30 87-38v-123h-353v671h321z m101-526c-53 0-103 16-147 46l-8 6-76-48 42 79-7 8c-39 46-61 105-61 166 0 141 115 257 257 257 142 0 257-116 257-257 0-142-115-257-257-257z m1 480c-122 0-222-99-222-221 0-122 100-221 222-221 122 0 221 99 221 221 0 122-99 221-221 221z m0-412c-106 0-191 86-191 191 0 105 85 191 191 191 105 0 191-86 191-191 0-105-86-191-191-191z m16 336v12h-30v-12h-5c-33 0-59-27-59-59v-30c0-18 10-34 32-47l11-5 0 0 21-8v-97h-5c-16 0-29 13-29 29v14h-30v-14c0-32 26-59 59-59h5v-13h30v13c33 0 59 27 59 59v30c0 18-11 34-32 48l-9 3 0 1-18 7v97c16 0 29-13 29-28v-14h30v14c0 32-26 59-59 59z m29-187v-30c0-16-13-29-29-29v85l12-4c11-8 17-15 17-22z m-68 74l-1 0v0l-8 3c-7 5-16 13-16 21v30c0 15 13 28 29 28h5v-86l-9 4z" horiz-adv-x="1000" />

<glyph glyph-name="page-optimization" unicode="&#xe808;" d="M0 737v-123-651h1000v651 123h-1000z m30-30h940v-64h-940v64z m190-649c0 154 126 280 280 280 154 0 280-126 280-280 0-22-3-44-8-65h-544c-5 21-8 43-8 65z m750-65h-168c5 21 7 43 7 65 0 103-50 193-127 250l9 16 12-7c4-2 8-3 12-3 8 0 16 4 20 11l21 36c6 11 2 25-9 32l-54 31c-11 6-26 2-32-8l-21-36c-3-5-4-11-2-17 1-7 5-12 11-15l17-10-8-14c-47 27-100 43-158 43-57 0-110-15-156-42l-9 16 13 7c11 7 15 21 9 32l-21 36c-6 10-21 14-32 8l-54-31c-6-3-10-8-11-14-2-7-1-13 2-18l20-36c5-7 12-11 21-11 4 0 8 1 12 3l15 9 10-17c-77-56-128-148-128-251 0-22 2-44 7-65h-168v621h940v-621z m-301 378l14 25 44-26-14-25-44 26z m-385-26l-14 25 44 26 14-25-44-26z m-235 346h31v-30h-31v30z m53 0h30v-30h-30v30z m53 0h30v-30h-30v30z m274-306c6-5 13-8 20-8h102c15 0 28 13 28 28l0 66c0 8-3 15-8 20-5 6-13 9-20 9l-102 0c-15 0-28-13-28-29l0-66c0-7 3-14 8-20z m121 85l0-64h-100l0 64 100 0z m-67-173h30v-40h-30v40z m-97-75l-20 34 26 15 20-35-26-14z m-66-79l-35 20 15 25 34-20-14-25z m-59-72h41v-30h-41v30z m438 4h40v-29h-40v29z m-36 97l35 20 15-25-35-20-15 25z m-58 101l25-14-20-35-25 15 20 34z m12-70l-102-102c-4 2-9 3-15 3-25 0-45-21-45-46 0-25 20-45 45-45h0c25 0 46 20 46 45 0 9-3 18-7 25l99 99-21 21z m-117-161h0c-8 0-16 8-16 16 0 9 7 16 16 16 9 0 16-7 16-16 0-8-7-16-16-16z" horiz-adv-x="1000" />

<glyph glyph-name="ppc" unicode="&#xe809;" d="M793 820c-104 0-189-85-189-189 0-104 85-188 189-188 104 0 188 84 188 188 0 104-84 189-188 189z m0-347c-88 0-159 71-159 158 0 88 71 159 159 159 87 0 158-71 158-159 0-87-71-158-158-158z m0 292c-74 0-134-60-134-134 0-73 60-133 134-133 73 0 133 60 133 133 0 74-60 134-133 134z m0-236c-57 0-103 46-103 102 0 57 46 103 103 103 56 0 102-46 102-103 0-56-46-102-102-102z m15 176l-27 11-45-47 22-21 19 19v-77h-6v-30h42v30h-5v115z m-612 145h30v-101h-30v101z m-162-93l88-51-15-26-88 50 15 27z m-15-213l88 51 15-27-88-50-15 26z m296 51l88-51-16-26-87 50 15 27z m72 162l16-27-88-50-15 26 87 51z m178-697h-68c17 24 28 55 28 83l0 197-2 42c0 32-26 57-57 57-14 0-26-2-35-7-10 17-28 28-49 28-12 0-24-4-33-10-9 19-29 31-51 31-10 0-19-2-27-6 0 52 0 121 0 167 0 32-26 59-59 59-32 0-58-27-58-59l0-255c-14 11-31 18-50 18l-37 0v-208l112-137h-23v-53h-8v-157h31v126h396v-126h30v157h-40v53l0 0z m-467 148v166h6c27 0 49-21 49-48l0-108h31l0 424c0 16 13 28 28 28 16 0 29-12 29-28l0-241c1-9 3-10 6-13l24-17v53c0 15 12 27 27 27 15 0 27-12 27-27v-21h30c0 15 12 27 27 27 15 0 27-12 27-27v-10h30v0c0 5 0 16 27 16 15 0 27-12 27-28l2-42v-196c0-29-17-64-39-83h-238l-120 148z m88-178h349v-23h-349v23z m130 620v-30h193l-46-46 21-22 83 83-83 83-21-22 46-46h-193z" horiz-adv-x="1000" />

<glyph glyph-name="quality" unicode="&#xe80a;" d="M0 737v-123-651h1000v651 123h-1000z m30-30h940v-64h-940v64z m940-714h-940v621h940v-621z m-921 698h31v-30h-31v30z m53 0h30v-30h-30v30z m53 0h30v-30h-30v30z m223-517l122 65 122-65-23 136 99 97-137 20-61 124-61-124-137-20 99-97-23-136z m-12 212l93 14 41 84 42-84 92-14-67-65 16-93-83 44-83-44 16 93-67 65z m363-126l-15-86 77 41 76-41-14 86 62 60-86 12-38 78-39-78-85-12 62-60z m43 45l19 38 18-38 42-6-30-29 7-42-37 20-38-20 7 42-30 29 42 6z m-625-45l-14-86 76 41 77-41-15 86 62 60-85 12-39 78-38-78-86-12 62-60z m44 45l18 38 19-38 42-6-30-29 7-42-38 20-37-20 7 42-30 29 42 6z" horiz-adv-x="1000" />

<glyph glyph-name="responsive" unicode="&#xe80b;" d="M973 347h-23v61h0v312c0 22-18 40-40 40h-870c-22 0-39-18-39-40v-523h-1v-92c0-23 22-46 45-46h313c0-5 0-11 0-17 0-18 1-38-2-49-1-10-2-12-9-16-5-3-9-5-14-8h-28v-29h341v0h158v0c1 0 1 0 2 0h167c15 0 27 12 27 26v354c0 15-12 27-27 27z m-2-50h-163v20h163v-20z m-93 50h-72c-15 0-27-12-27-27v-296h-149v379h248v-56z m-70-79h163v-246h-163v246z m99 79v85h-306v-438h178v-24h-187c-2 0-5 2-5 4v472c0 3 3 5 5 5h324c2 0 5-2 5-5v-99h-14z m-36 133h-279c-19 0-34-15-34-34v-197h-479v430h792v-199z m-841 240c0 6 5 11 10 11h870c6 0 11-5 11-11v-240c-2 0-3 0-5 0h-16v228h-850v-488h508v-23h-528v523z m-1-615v63h529v-80h-513c-7 0-16 10-16 17z m356-118c3 14 3 35 2 55 0 6 0 12 0 16l0 1h171v-85c0-1 0-3 1-5h-179c2 5 4 10 5 18z m423-18v23h163v-23h-163z" horiz-adv-x="1000" />

<glyph glyph-name="security" unicode="&#xe80c;" d="M760 513v110c0 125-102 227-227 227h-66c-125 0-227-102-227-227v-110h-64-31v-31-602-30h31 648 31v30 602 31h-31-64z m-489 110c0 109 88 197 196 197h66c108 0 196-88 196-197v-110h-54v110c0 79-64 142-142 142h-66c-78 0-142-63-142-142v-110h-54v110l0 0z m374-110h-290v110c0 62 50 112 112 112h66c62 0 112-50 112-112v-110l0 0z m179-31v-41h-648v41h648z m0-209h-72v-30h72v-38h-72v-31h72v-37h-72v-31h72v-157h-648v157h62v31h-62v37h62v31h-62v38h62v30h-62v137h648v-137z m-648-393v39h648v-39h-648z m277 327l-14-155h122l-14 155c18 14 28 35 28 59 0 41-34 75-75 75-41 0-75-34-75-75 0-24 10-45 28-59z m47 103c25 0 45-20 45-44 0-16-8-30-22-39l-8-5 13-140h-56l13 140-8 5c-13 9-22 23-22 39 0 24 20 44 45 44z" horiz-adv-x="1000" />

<glyph glyph-name="seo" unicode="&#xe80d;" d="M888 256v459c0 22-17 40-39 40h-698c-22 0-39-18-39-40v-459h-112v-48l6-4c3-3 38-28 66-28h374l0-181c0 0 0 0 0 0l0-19c0-4 2-7 4-10 14-13 31-21 50-21 19 0 36 8 50 21 2 3 4 6 4 10v19c0 0 0 0 0 0v181h374c29 0 63 25 67 28l5 4v48h-112z m-749 459c0 7 5 12 12 12h698c7 0 12-5 12-12v-459h-294l-3-10c-1-2-1-3-10-3v2c0 7-6 12-12 13v26c40 8 77 28 106 58 40 39 62 92 61 148 0 56-21 108-61 148-14 14-31 27-48 36h47 28 125v-369h-180v-27h208v423h-153-28-474v-423h207v27h-180v369h200c-17-9-34-22-48-36-40-40-61-92-61-148 0-56 21-109 61-148 30-30 66-50 107-58v-26c-4 0-6-2-9-4-2-2-4-6-4-9v-2c-8 0-9 1-10 3l-2 10h-295v459z m375-407h0v0c-4 0-9 0-14 0l0-14v14c-5 0-9 0-14 0v0h-1c-43 4-83 22-114 53-34 34-53 80-53 129 0 49 19 94 53 129 34 34 80 53 129 53 49 0 95-19 129-53 34-35 53-80 53-129 0-49-19-95-53-129-31-31-71-49-115-53z m-14-28c0 0 1 0 1 0 4 0 9 1 13 1v-23h-28v23c5 0 9-1 14-1z m-26-49h52v-222h-52l0 222z m-402-28c-13 0-32 10-45 19v7h388c7-11 20-13 31-13v-13h-374z m402-222h52c-15-11-37-11-52 0z m499 241c-13-9-32-19-45-19h-374v13c11 0 24 2 31 13h388v-7z m-357 384c-31 31-72 48-116 48 0 0 0 0 0 0-44 0-85-17-116-48-31-31-48-72-48-116 0-44 17-85 48-116 31-31 72-48 116-48 44 0 85 17 116 48 31 31 48 72 48 116 0 44-17 85-48 116z m-19-213c-26-26-60-40-97-40-37 0-71 14-97 40-26 26-40 60-40 97 0 36 14 71 40 97 26 26 60 40 97 40l0 13v-13c11 0 23-2 33-4l-77-78 19-19 86 86c8-3 15-8 22-13l-130-129 19-19 131 130c22-25 34-57 34-91 0-37-14-71-40-97z" horiz-adv-x="1000" />

<glyph glyph-name="seo-monitoring" unicode="&#xe80e;" d="M44 658h28v-27h-28v27z m48 0h27v-27h-27v27z m47 0h28v-27h-28v27z m853 34c-4 2-10 1-14-2l-78-67v76h-900v-111-585h108 105 687v422l23 31h61c8 0 13 6 14 13l2 210c0 6-3 10-8 13z m-965-19h846v-58h-846v58z m0-85h832l-128-108c-4-4-6-10-4-15 2-5 7-9 12-9h45l-161-220-123 167c-3 3-7 5-11 5h-105c-5 0-9-2-11-5l0 0 0 0c0 0 0 0 0 0l-272-373h-74v558z m541-426l-158 220h72l124-168-38-52z m-434-132l250 342 37-52-215-290h-72z m739 0h-634l199 268 120-166 0 0c2-3 6-6 10-6h106c4 0 8 2 10 6l189 257 0-359 0 0z m98 453h-55c-4 0-8-2-11-6l-238-324h-72l226 309c3 4 4 9 1 13-2 5-7 8-12 8h-34l197 168-2-168z" horiz-adv-x="1000" />

<glyph glyph-name="seo-performance" unicode="&#xe80f;" d="M421 586c75 0 142-49 165-121l28 9c-27 84-105 141-193 141-112 0-203-91-203-203 0-92 61-172 150-196l7 28c-75 20-128 90-128 168 0 96 78 174 174 174z m-55-514c-19 3-38 8-57 14l-9 3-31-33-76 44 13 42-7 7c-15 12-29 26-41 41l-7 7-44-14-45 77 36 32-3 9c-6 17-11 35-14 53l-1 10-51 10 0 89 53 11 2 10c3 16 8 32 13 47l4 9-43 39 44 77 58-19 6 7c10 10 20 20 31 30l8 6-20 62 77 44 44-49 9 3c12 4 25 7 37 10l10 2 14 67h89l15-67 9-2c12-3 24-6 35-9l9-3 48 53 77-45-22-65 8-7c9-8 18-16 27-25l6-7 67 21 50-86 25 14-62 107-71-23c-5 5-11 10-16 15l23 70-118 68-51-57c-7 2-13 4-20 5l-15 72h-136l-16-72c-7-2-14-4-22-6l-48 53-117-68 21-65c-7-6-14-13-20-20l-62 21-68-118 46-41c-4-11-7-22-10-33l-57-12 0-136 54-12c3-13 6-26 10-38l-39-35 68-118 49 16c9-11 20-22 31-31l-15-46 117-68 34 37c14-5 28-8 43-11l7-35 29 6-12 54-10 2z m501 334l2 5 10-6c3-2 7-3 11-3 8 0 16 4 20 11l18 32c6 11 2 25-8 31l-49 28c-11 6-25 2-31-8l-18-32c-3-5-4-11-3-17 2-6 6-11 11-14l14-8-2-3c-24 13-51 23-79 29 4 5 6 11 6 17l0 60c0 7-3 14-8 19-5 5-12 8-19 8l-91 0c-15 0-27-12-27-27l0-60c0-6 2-12 6-17-28-6-54-16-78-29l-3 5 11 6c11 7 14 20 8 31l-18 32c-6 10-20 14-31 8l-49-28c-5-3-9-8-10-14-2-6-1-12 2-17l18-32c4-7 12-11 20-11 4 0 8 1 11 3l13 8 3-6c-81-54-134-147-134-252 0-167 136-303 303-303 168 0 304 136 304 303 0 105-53 197-133 251z m-5 70l37-22-11-20-38 21 12 21z m-360-42l-11 20 37 22 12-21-38-21z m238 92l0-56h-87l0 56 87 0z m-44-645c-151 0-274 123-274 274 0 152 123 275 274 275 152 0 275-123 275-275 0-151-123-274-275-274z m-16 489h29v-36h-29v36z m-80-22l18-31-25-15-18 31 25 15z m-84-74l32-18-15-26-31 18 14 26z m-35-106h37v-29h-37v29z m37-135l-14 26 31 18 15-26-32-18z m85-72l-25 14 18 32 25-15-18-31z m81 15h29v-36h-29v36z m91 18l18-31 25 14-18 32-25-15z m70 61l32-18 14 25-31 18-15-25z m30 88l0 29 37 0 0-29-37 0z m14 109l-14 25-32-18 15-25 31 18z m-99 98l25-15-18-31-25 15 18 31z m-78-155c-5 2-10 3-15 3-24 0-43-19-42-42 0-24 18-43 42-43 23 0 42 19 42 43 0 7-2 14-5 20l88 90-21 20-89-91z m-15-53h0c-8 0-13 6-13 14 0 7 5 13 13 13 7 0 13-6 13-13 0-8-6-14-13-14z" horiz-adv-x="1000" />

<glyph glyph-name="social-network" unicode="&#xe810;" d="M818 358c-8 4-16 7-24 9v166c8 2 16 5 24 9 18 11 31 28 36 48 6 21 3 42-8 60-14 24-40 40-68 40-14 0-27-4-39-11-7-4-13-9-18-14l-145 84c2 7 3 14 3 22 0 44-35 79-79 79-43 0-79-35-79-79 0-7 1-13 3-20l-147-84c-4 5-10 9-15 12-12 7-26 11-40 11-28 0-54-16-68-40-11-18-14-39-8-60 5-20 18-37 37-48 5-3 12-6 18-8v-168c-6-2-13-5-18-8-19-11-32-28-37-48-6-20-3-42 8-60 14-24 40-39 68-39 14 0 28 3 40 10 6 4 12 9 18 14l79-45v-103c0-29 34-47 58-48v-189h29v0h39v0h30v0h39v0h29v189c24 1 58 19 58 48v105l78 45c5-6 12-11 20-16 12-7 25-10 39-10 28 0 54 15 68 39 22 38 9 86-28 108z m-65 296c8 4 16 6 25 6 18 0 34-9 43-25 7-11 8-24 5-37-4-13-12-24-23-30-8-5-16-7-25-7-18 0-34 9-43 25-14 23-5 54 18 68z m-253 167c27 0 50-23 50-50 0-27-23-50-50-50s-50 23-50 50c0 27 23 50 50 50z m-326-223c-3 13-1 26 5 37 9 16 25 25 43 25 9 0 17-2 25-6 11-7 20-18 23-31 3-12 2-26-5-37-9-16-25-25-43-25-9 0-17 2-25 7-11 6-19 17-23 30z m73-351c-8-5-16-7-25-7-18 0-34 10-43 25-6 11-8 25-5 37 4 13 12 24 23 31 8 4 16 6 25 6 18 0 34-9 43-25 14-23 6-54-18-67z m365-160c0-7-16-18-29-18v206h-29v-396h-39v184h-30v-184h-39v396h-29v-206c-13 0-29 11-29 18v199c0 12 11 27 22 30 59 18 121 18 180 0 11-3 22-18 22-30l0-199 0 0z m29 139v60c0 25-19 52-42 59-65 19-133 19-198 0-23-7-42-34-42-59v-62l-64 36c7 17 8 37 2 55l122 70-14 26-122-71c-14 16-32 26-52 28v164c23 3 44 15 57 35l117-67 14 25-120 70c3 11 3 24-1 36-1 4-2 8-4 12l142 82c12-16 29-28 49-32v-135h30v135c19 4 36 15 47 30l143-83c-6-15-8-32-4-48l-115-67 15-25 113 65c12-17 30-29 51-32v-166c-18-3-34-12-46-25l-118 69-15-26 118-68c-7-18-6-37 0-54l-63-37z m180 39c-9-15-25-25-43-25-9 0-17 2-25 7-11 6-19 17-23 30-3 13-2 26 5 37 9 16 25 25 43 25 9 0 17-2 25-6 23-14 32-45 18-68z m-321 264c-44 0-79-35-79-79 0-43 35-79 79-79 44 0 79 36 79 79 0 44-35 79-79 79z m0-128c-27 0-50 22-50 49 0 27 23 50 50 50s50-23 50-50c0-27-23-49-50-49z" horiz-adv-x="1000" />

<glyph glyph-name="speed-optimization" unicode="&#xe811;" d="M757 627l10 18c4-2 8-3 12-3h0c9 0 18 5 23 13l26 46c4 6 5 13 3 20-2 7-6 13-12 16l-71 41c-12 7-29 3-36-10l-27-46c-3-6-4-13-2-19 1-6 4-11 9-14l-9-18c-32 15-65 26-99 33 9 6 15 16 15 28l0 85c0 9-4 17-10 23-6 7-14 10-23 10l-132 0c-18 0-33-15-33-33l0-85c0-9 4-17 10-24 2-1 4-3 5-4-36-7-70-19-102-34l-11 18c11 8 14 23 7 34l-26 47c-7 11-24 16-36 9l-71-41c-6-3-10-9-12-16-2-7-1-14 3-20l26-46c5-8 14-13 23-13 4 0 7 1 11 2l11-20c-103-79-170-203-170-343 0-238 193-431 431-431 238 0 431 193 431 431 0 141-68 267-174 346z m-40 47l24-14-6-11-24 13 6 12z m19 76l64-37-23-39-64 37 23 39z m-459-77l7-11-24-14-6 11 23 14z m-82 40l65 37 23-39-65-37-23 39z m239 107l132 0c1 0 1 0 2-1 0 0 1-1 1-2l0-85c0-2-2-3-3-3h-132c-1 0-1 0-2 0 0 1-1 2-1 3l0 85c0 2 2 3 3 3z m66-940c-221 0-401 180-401 401 0 221 180 401 401 401 221 0 401-180 401-401 0-221-180-401-401-401z m0 770c-204 0-369-165-369-369 0-203 165-369 369-369 204 0 369 166 369 369 0 204-165 369-369 369z m0-708c-187 0-339 152-339 339 0 187 152 339 339 339 187 0 339-152 339-339 0-187-152-339-339-339z m-18 649h30v-52h-30v52z m-126-36l26-45-26-15-26 45 26 15z m-118-109l45-26-15-26-45 26 15 26z m-48-153h52v-30h-52v30z m51-182l-15 26 45 26 15-26-45-26z m94-92l26-15 26 45-26 15-26-45z m153-48l30 0 0 52-30 0 0-52z m157 36l-27 45 26 15 26-45-25-15z m117 109l-45 26 15 26 45-26-15-26z m-4 183l0-30 52 0 0 30-52 0z m1 152l15-26-45-26-15 26 45 26z m-120 107l26-15-26-45-26 15 26 45z m-114-228c-7 4-16 6-25 6-30 0-55-24-54-55 0-30 24-54 54-54 31 0 55 24 55 54 0 11-3 21-8 29l130 134-22 21-130-135z m-25-73c-13 0-25 11-25 24 0 14 12 25 25 25 14 0 25-11 25-25 0-13-11-24-25-24z" horiz-adv-x="1000" />

<glyph glyph-name="strategy" unicode="&#xe812;" d="M1000 644v113h-1000v-113h24v-497h-24v-81h332l-83-105 23-18 98 123h116v-114h29v114h116l97-123 23 18-83 105h332v81h-24v497h24z m-29-549h-942v23h942v-23z m-942 633h942v-55h-942v55z m918-577h-894v493h894v-493z m-762 263l20-21 64 65 64-65 21 21-64 64 64 64-21 21-64-64-64 64-20-21 64-64-64-64z m549-172c49 0 88 40 88 89 0 49-39 88-88 88-49 0-89-39-89-88 0-49 40-89 89-89z m0 148c33 0 59-26 59-59 0-33-26-60-59-60-33 0-60 27-60 60 0 33 27 59 60 59z m-480-155v-29c172 0 313 138 313 309 0 2 0 4 0 7l46-47 21 21-84 83-83-83 20-21 51 50c0-3 0-7 0-10 0-155-128-280-284-280z" horiz-adv-x="1000" />

<glyph glyph-name="technical-support" unicode="&#xe813;" d="M548 142l0 419c52 27 86 80 86 140 0 38-14 75-40 103l-25 29 0-114-72-42-72 42 0 131-21-11c-51-27-83-80-83-138 0-59 33-113 86-140l0-419c-53-27-86-80-86-140 0-49 22-94 61-124l23-17 0 128 57 33 57-33 0-139 20 8c57 25 95 82 95 144 0 60-34 113-86 140z m-1-247l0 111-85 49-85-49 0-83c-18 23-28 50-28 79 0 51 31 98 78 118l8 4 0 456-8 3c-47 21-78 67-78 118 0 39 18 75 47 99l0-98 101-58 101 58 0 41c5-14 7-28 7-42 0-51-30-97-77-118l-9-3 0-457 9-3c47-20 77-67 77-118 0-43-22-83-58-107z m340 304c0 11-5 21-11 29 7 11 12 24 12 36l0 17c0 11 0 17 0 20l0 0 0 2c0 5 0 26 0 33 0 29-28 29-37 29l-7 0-16 0 1 312 26 33-29 130h-71l-29-131 27-32v-312l-15 0-2 0-6 0c-8 0-21 0-29-8-5-5-8-12-8-21l0-33 0-22 0-17c0-12 5-25 12-35-8-9-13-20-13-31l2-258c0-21 15-49 40-57 18-6 37-9 57-9 0 0 0 0 0 0 20 0 40 3 59 10 24 8 39 36 38 57l-1 258z m-130 518l21 95h25l21-95-23-30-2-322-17 0v322l-25 30z m-35-414l0 33c0 0 0 0 0 0 2 1 4 1 8 1l6 0 2 0 105 0 8 0c4 0 7-1 8-1 0 0 0 0 0 0 0-7 0-28 0-33h0c0-3 0-9 0-22l0-17c0-8-5-19-11-25h-115c-6 6-11 17-11 25l0 17 0 22z m118-392c-16-6-32-9-49-9h0c-17 0-33 3-48 8-11 4-20 20-20 30l-2 258c0 5 2 9 6 12h126c3-3 5-7 5-11l2-258c0-10-9-26-20-30z m-9 274c-8 0-14-6-14-14v-222c0-8 6-15 14-15s14 7 14 15v222c0 8-6 14-14 14z m-41 0c-7 0-14-6-14-14v-222c0-8 7-15 14-15 8 0 15 7 15 15v222c0 8-7 14-15 14z m-40 0c-8 0-14-6-14-14l0-222c0-8 6-15 14-15s14 7 14 15l0 222c0 8-6 14-14 14z m-299 386h28v-442h-28v442z m-162-7h-118l-59-102 59-102h118l59 102-59 102z m-16-176h-86l-42 74 42 74h86l42-74-42-74z m-43 124c-28 0-50-23-50-50 0-27 22-50 50-50 27 0 50 23 50 50 0 27-23 50-50 50z m0-71c-12 0-21 9-21 21 0 12 9 21 21 21 12 0 21-9 21-21 0-12-9-21-21-21z" horiz-adv-x="1000" />

<glyph glyph-name="website-optimization" unicode="&#xe814;" d="M44 697h27v-27h-27v27z m47 0h27v-27h-27v27z m47 0h27v-27h-27v27z m-80-591h171 0v171h-171v-171z m26 145h119v-119h-119v119z m916-30l0 101-50 11c-1 5-3 9-4 14l37 33-51 88-40-13v173 110h-892v-110-606h510l78-46 24 27c9-3 18-5 27-7l8-34 101 0 8 37c8 2 17 5 25 8l25-27 88 50-13 40c5 5 11 11 16 17l38-13 51 88-34 31c1 6 2 12 4 18l44 10z m-974 490h839v-57h-839v57z m0-83h839v-105l-29 17v42h-780v-268h332l0-37h-120v-26h120l0-22h-120v-27h160c2-6 4-13 6-20l-2-2h-164v-26h139l13-22h-152v-26h167v0l21-37 35 11c6-7 13-13 20-20l-4-12h-481v580z m484-169c-4-3-8-7-12-11l-45 14-51-87 33-30c0-2 0-3-1-4h-352v215h499l-86-50 15-47z m287 97l-33-37c-4 1-8 2-11 3l-7 34h51z m-161 0l-7-34c-4-1-8-2-12-3l-34 37h53z m317-399l-30-51-36 11-5-7c-8-9-16-18-25-27l-6-6 11-34-51-30-22 25-9-3c-12-5-25-9-38-12l-8-2-7-32-59 0-7 30-8 2c-14 2-28 5-41 10l-8 3-21-24-51 29 9 30-6 6c-11 9-21 18-29 29l-6 7-32-11-29 51 25 23-3 8c-4 12-7 25-9 37l-2 9-35 8 0 58 37 8 2 9c2 11 5 22 9 33l3 9-30 27 29 51 41-13 6 6c6 7 14 14 22 21l6 6-14 43 51 29 31-34 8 2c9 3 18 6 27 7l8 2 11 48h58l11-48 8-2c8-1 17-4 25-6l8-3 34 38 51-30-15-46 6-6c7-5 13-12 19-18l6-6 47 15 29-51-34-31 3-8c3-9 6-18 9-27l2-8 45-10 0-59-42-9-1-9c-2-10-4-21-7-32l-2-7 31-28z m-262 251c-81 0-148-66-148-148 0-81 67-147 148-147s147 66 147 147c0 82-66 148-147 148z m0-269c-67 0-121 55-121 121 0 67 54 122 121 122 67 0 121-55 121-122 0-66-54-121-121-121z" horiz-adv-x="1000" />

<glyph glyph-name="instagram-with-circle" unicode="&#xe815;" d="M703 504a86 86 0 0 1-49 49 144 144 0 0 1-49 9c-27 1-35 2-105 2s-78-1-105-2a144 144 0 0 1-49-9 86 86 0 0 1-49-49 144 144 0 0 1-9-49c-1-27-1-35-1-105s0-78 1-105a144 144 0 0 1 9-49 86 86 0 0 1 49-49 144 144 0 0 1 49-9c27-1 36-1 105-1s78 0 105 1a144 144 0 0 1 49 9 86 86 0 0 1 49 49 144 144 0 0 1 9 49c1 27 2 36 2 105s-1 78-2 105a144 144 0 0 1-9 49z m-203-288a134 134 0 1 0 134 134 134 134 0 0 0-134-134z m139 242a31 31 0 1 0 31 31 31 31 0 0 0-31-31z m-52-108a87 87 0 1 0-87 87 87 87 0 0 0 87-87z m-87 500a500 500 0 1 1 500-500 500 500 0 0 1-500 500z m259-607a191 191 0 0 0-12-64 133 133 0 0 0-76-76 191 191 0 0 0-64-12c-27-1-36-1-107-1s-80 0-107 1a191 191 0 0 0-64 12 133 133 0 0 0-76 76 191 191 0 0 0-12 64c-1 27-1 36-1 107s0 80 1 107a191 191 0 0 0 12 64 133 133 0 0 0 76 76 191 191 0 0 0 64 12c27 1 36 1 107 1s80 0 107-1a191 191 0 0 0 64-12 133 133 0 0 0 76-76 191 191 0 0 0 12-64c1-27 1-36 1-107s0-80-1-107z" horiz-adv-x="1000" />

<glyph glyph-name="instagram" unicode="&#xf16d;" d="M571 350q0 59-41 101t-101 42-101-42-42-101 42-101 101-42 101 42 41 101z m77 0q0-91-64-156t-155-64-156 64-64 156 64 156 156 64 155-64 64-156z m61 229q0-21-15-36t-37-15-36 15-15 36 15 36 36 15 37-15 15-36z m-280 123q-4 0-43 0t-59 0-54-2-57-5-40-11q-28-11-49-32t-33-49q-6-16-10-40t-6-58-1-53 0-59 0-43 0-43 0-59 1-53 6-58 10-40q12-28 33-49t49-32q16-6 40-11t57-5 54-2 59 0 43 0 42 0 59 0 54 2 58 5 39 11q28 11 50 32t32 49q6 16 10 40t6 58 1 53 0 59 0 43 0 43 0 59-1 53-6 58-10 40q-11 28-32 49t-50 32q-16 6-39 11t-58 5-54 2-59 0-42 0z m428-352q0-128-3-177-5-116-69-180t-179-69q-50-3-177-3t-177 3q-116 6-180 69t-69 180q-3 49-3 177t3 177q5 116 69 180t180 69q49 3 177 3t177-3q116-6 179-69t69-180q3-49 3-177z" horiz-adv-x="857.1" />

<glyph glyph-name="snapchat" unicode="&#xf2ab;" d="M714 209q0 13-12 15-38 9-66 33t-45 61q-4 10-4 14 0 8 11 14t24 10 24 11 11 20q0 11-10 18t-22 7q-7 0-18-4t-17-5q-2 0-7 1 3 53 3 64 0 44-9 63-21 44-58 68t-85 24q-111 0-153-92-10-19-10-63 0-11 3-64-2-1-8-1-6 0-18 4t-16 4q-12 0-22-6t-10-18q0-12 11-20t24-11 24-10 11-14q0-4-4-14-35-77-110-94-13-2-13-15 0-25 77-38 1-2 3-14t7-17 13-5q6 0 21 2t22 3q19 0 37-9t30-18 32-18 43-8q24 0 44 8t32 18 30 18 37 9q8 0 23-3t21-2q9 0 13 6t6 17 3 13q77 13 77 38z m143 141q0-117-57-215t-156-156-215-58-216 58-155 156-58 215 58 215 155 156 216 58 215-58 156-156 57-215z" horiz-adv-x="857.1" />

<glyph glyph-name="snapchat-ghost" unicode="&#xf2ac;" d="M473 779q75 0 134-39t92-107q15-32 15-100 0-26-5-106 8-4 15-4 10 0 29 7t28 8q16 0 32-10t15-26q0-18-18-30t-38-18-39-16-18-26q0-9 7-24 21-46 57-84t81-57q16-6 45-12 15-4 15-20 0-39-122-57-4-6-6-22t-8-26-18-10q-11 0-35 3t-36 4q-20 0-34-3-18-3-35-13t-33-21-32-22-43-19-55-8q-29 0-54 8t-41 19-33 22-32 21-35 13q-14 3-35 3-13 0-36-4t-33-5q-14 0-19 11t-8 26-6 23q-123 18-123 57 0 16 16 20 29 6 45 12 43 18 80 57t58 84q6 15 6 24 0 15-17 26t-39 17-39 17-18 29q0 15 15 26t31 10q8 0 26-7t30-7q10 0 18 4-5 79-5 106 0 68 15 100 36 76 96 110t147 36z" horiz-adv-x="928.6" />

<glyph glyph-name="snapchat-square" unicode="&#xf2ad;" d="M714 209q0 13-12 15-37 8-66 33t-44 61q-4 7-4 14 0 8 11 14t23 10 24 11 11 20q0 11-10 18t-22 7q-6 0-17-4t-18-5q-2 0-7 1 3 35 3 64 0 44-9 64-21 43-58 68t-85 24q-110 0-153-92-10-21-10-64 0-21 3-64-6-1-8-1-6 0-18 5t-17 4q-11 0-21-7t-10-18q0-12 11-20t24-11 24-10 11-14q0-7-4-14-36-77-111-94-12-2-12-15 0-26 77-38 1-3 3-15t6-17 13-5q7 0 22 3t21 3q20 0 38-9t30-18 32-18 43-8q24 0 44 8t32 18 30 18 38 9q7 0 22-3t22-2q8 0 12 5t7 17 2 14q77 12 77 38z m143 409v-536q0-66-47-113t-114-48h-535q-67 0-114 48t-47 113v536q0 66 47 113t114 48h535q67 0 114-48t47-113z" horiz-adv-x="857.1" />
</font>
</defs>
</svg>
